+ buyu829.com »  :::: Dubbed Zone (Dubbed English in Hindi) » English Movies Dubbed in Hindi » High Resolution Movies
|- Ant-Man (2015) 1080p BluRay x264 Dual Audio [Hindi DD5.1 - English DD5.1] - Esub ~ Ranvijay

Weekend Pay And Play 50% Off

Ant-Man (2015) 1080p BluRay x264 Dual Audio [Hindi DD5.1 - English DD5.1] - Esub ~ Ranvijay

0 Members and 1 Guest are viewing this topic.

June 22, 2018, 01:20:14 PM
  • Global Moderator
  • Legend Member
  • *****
  • Topic Author
  • Thank You: 7614
  • Reputation: 1676
  • Activity:
    100%
  • Country: in
  • Posts: 4512
  • Topics: 3760
  • Join Date: Jan 2014
  • ıllıllı ѕмoĸιng ιѕ good ғor нealтн ıllıllı :)


Ant-Man (2015) 1080p BluRay x264 Dual Audio [Hindi DD5.1 - English DD5.1] - Esub ~ Ranvijay

Quote
Format                                   : Matroska
Format version                           : Version 4 / Version 2
File size                                : 7.34 GiB
Duration                                 : 1 h 57 min
Overall bit rate                         : 8 968 kb/s
Movie name                               : Ant-Man (2015) 1080p BluRay x264 Dual Audio [Hindi DD5.1 - English DD5.1] - Esub ~ Ranvijay

Video
ID                                       : 1
Format                                   : AVC
Format/Info                              : Advanced Video Codec
Format profile                           : [email protected]
Format settings                          : CABAC / 4 Ref Frames
Format settings, CABAC                   : Yes
Format settings, RefFrames               : 4 frames
Codec ID                                 : V_MPEG4/ISO/AVC
Duration                                 : 1 h 57 min
Bit rate                                 : 8 200 kb/s
Width                                    : 1 920 pixels
Height                                   : 1 036 pixels
Display aspect ratio                     : 1.85:1
Frame rate mode                          : Constant
Frame rate                               : 23.976 (24000/1001) FPS
Color space                              : YUV
Chroma subsampling                       : 4:2:0
Bit depth                                : 8 bits
Scan type                                : Progressive
Bits/(Pixel*Frame)                       : 0.172
Stream size                              : 6.71 GiB (91%)
Title                                    : ~Ranvijay~
Language                                 : English
Default                                  : Yes
Forced                                   : No

Audio #1
ID                                       : 3
Format                                   : AC-3
Format/Info                              : Audio Coding 3
Codec ID                                 : A_AC3
Duration                                 : 1 h 57 min
Bit rate mode                            : Constant
Bit rate                                 : 384 kb/s
Channel(s)                               : 6 channels
Channel positions                        : Front: L C R, Side: L R, LFE
Sampling rate                            : 48.0 kHz
Frame rate                               : 31.250 FPS (1536 SPF)
Bit depth                                : 16 bits
Compression mode                         : Lossy
Delay relative to video                  : 1 s 0 ms
Stream size                              : 322 MiB (4%)
Title                                    : ~Ranvijay~
Language                                 : Hindi
Service kind                             : Complete Main
Default                                  : Yes
Forced                                   : No

Audio #2
ID                                       : 4
Format                                   : AC-3
Format/Info                              : Audio Coding 3
Codec ID                                 : A_AC3
Duration                                 : 1 h 57 min
Bit rate mode                            : Constant
Bit rate                                 : 384 kb/s
Channel(s)                               : 6 channels
Channel positions                        : Front: L C R, Side: L R, LFE
Sampling rate                            : 48.0 kHz
Frame rate                               : 31.250 FPS (1536 SPF)
Bit depth                                : 16 bits
Compression mode                         : Lossy
Stream size                              : 322 MiB (4%)
Title                                    : ~Ranvijay~
Language                                 : English
Service kind                             : Complete Main
Default                                  : No
Forced                                   : No

Text
ID                                       : 2
Format                                   : UTF-8
Codec ID                                 : S_TEXT/UTF8
Codec ID/Info                            : UTF-8 Plain Text
Duration                                 : 1 h 56 min
Bit rate                                 : 57 b/s
Count of elements                        : 1553
Stream size                              : 49.4 KiB (0%)
Title                                    : ~Ranvijay~
Language                                 : English
Default                                  : Yes
Forced                                   : No

Menu
00:00:00.000                             : :Chapter 01
00:02:08.837                             : :Chapter 02
00:08:40.186                             : :Chapter 03
00:15:24.840                             : :Chapter 04
00:19:59.740                             : :Chapter 05
00:27:50.210                             : :Chapter 06
00:33:07.235                             : :Chapter 07
00:38:53.956                             : :Chapter 08
00:44:36.465                             : :Chapter 09
00:49:22.459                             : :Chapter 10
00:57:44.252                             : :Chapter 11
01:00:48.811                             : :Chapter 12
01:06:31.529                             : :Chapter 13
01:23:21.287                             : :Chapter 14
01:34:20.529                             : :Chapter 15
01:47:34.239                             : :Chapter 16
01:57:06.394                             : :Chapter 17








:download:

Quote


SAMPLE


File Leeched & Uploaded From




Don't walk as you are king, walk as you don't care who the king is....!!
Never argue with an idiot. They drag you down to their level and then beat you with experience?

Share this topic on FacebookShare this topic on GoogleShare this topic on MySpaceShare this topic on TwitterShare this topic on Yahoo




Don't walk as you are king, walk as you don't care who the king is....!!

Thanks given by:


June 22, 2018, 01:44:32 PM
Reply #1
  • Devoted Member
  • **
  • Thank You: 18
  • Reputation: 8
  • Activity:
    0.8%
  • Country: pk
  • Posts: 110
  • Topics: 25
  • Join Date: Dec 2013
  • ShareSpark Member

June 22, 2018, 02:59:43 PM
Reply #2
  • Semi Newbie
  • **
  • Thank You: 0
  • Reputation: -3
  • Activity:
    10.2%
  • Country: in
  • Posts: 39
  • Topics: 0
  • Join Date: Jun 2018
  • ShareSpark Member
Thank you Rάήνίјάч1234 the movie king aap hi kr sakte the is lea apko bola apne aaj tak Kai movies ki Doulogy, Trilogy, Pantalogy, Octology upload ki h bs ek kam nhi kr paye wo h MARVEL movie ke phase 1,2,3 ki all movies ko ek sath upload krna Hulk 2008 se leker Black panther 2018 tak ki sari movie Hindi 1080p almost size 5 GB tak rakh kr MARVEL CINEMATIC UNIVERSE COLLECTION ya MARVEL MARATHON COLLECTION ke name se upload kare kaisa raha suggestions or aap to jante hi h log MARVEL movies k fan h TRY THIS

June 23, 2018, 03:15:45 PM
Reply #3
  • Semi Newbie
  • **
  • Thank You: 0
  • Reputation: -3
  • Activity:
    10.2%
  • Country: in
  • Posts: 39
  • Topics: 0
  • Join Date: Jun 2018
  • ShareSpark Member
Rάήνίјάч1234 SIR Kya socha MARVEL CINEMATIC UNIVERSE COLLECTION ke bare me bolo to sir I am waiting

June 23, 2018, 03:38:30 PM
Reply #4
  • Semi Newbie
  • **
  • Thank You: 0
  • Reputation: -3
  • Activity:
    10.2%
  • Country: in
  • Posts: 39
  • Topics: 0
  • Join Date: Jun 2018
  • ShareSpark Member
Bolo sir : Rάήνίјάч1234 Kya socha MARVEL CINEMATIC UNIVERSE COLLECTION ke bare me bolo to sir I am waiting

June 24, 2018, 10:45:29 AM
Reply #5
  • Semi Newbie
  • **
  • Thank You: 0
  • Reputation: -3
  • Activity:
    10.2%
  • Country: in
  • Posts: 39
  • Topics: 0
  • Join Date: Jun 2018
  • ShareSpark Member
Rάήνίјάч1234 SIR Kya socha MARVEL CINEMATIC UNIVERSE COLLECTION ke bare me bolo to sir I am waiting Jawab do sir

Tags:
 

Related Topics




Back to top